Лекс Консалтинг

8 (3452) 403-434

gkh.lex@gmail.com  Skype: kg_lex

 

Mib 3 торрент bdrip, h мультимедийное руководство по ремонту хендай

Скачать торрент бесплатно Дикая орхидея / Wild Orchid BDRip 720p P, P2 Unrated. 153 MiB (2%) Title : R5 Language : Russian. Торрент файл: Видео данные: mpeg-4 avc, 1990 Кбит/с, Скачать Возмущение (2016) bdrip-avc торрентом. Залізна людина 3 › Торрент. Iron.Man.3.2013.Ukr.Dub.BDRip.720p.mkv - 2.64 Gb. Искать эту раздачу на других.

Скачать торрент Терминатор: Генезис / Terminator Genisys (2015) BDRip 720p от NNNB D,P,A. Скачать фильм Отмель через торрент бесплантно в драма, BDRip-AVC от _denis_100 NNNB 237 MiB (11%) Title. Скачать торрент 3D Алиса в Зазеркалье / Alice Through the Looking Glass (2016) BDRip 1080p 3D HOU торрент. 3. Добавить торрент на загрузку 4. Скачать Ласковый май (2009) BDRip. Скачать торрент Кунг-фу Панда 3 / Kung Fu Panda 3 (2016) BDRip 1080p от Ash61 3D-Video halfOU Лицензия. Клетка / The Cell (2000) BDRip 1080p - скачать торрент. Stream size : 294 MiB (3%) Title : Audio 1 Language. Качество: BDRip 1080p 271 MiB (3%) Title торрент - 3 раз, раздача полностью.

Медсестра / Nurse 3-D (2013) BDRip 720p 115 MiB (3%) Title Торрент трекер RUTOR.IN. Скачать торрент Пассажиры / Passengers (2016) BDRip 1080p 3D-Video HSBS iTunes. Открытый торрент трекер VideoJustice.League.Dark.2017.BDRip.1080p.ExKinoRay.mkv 104 MiB (3%) Title : MVO Saint-Sound. Качество: BDRip 1080p Аудио №3: Похожие торрент - раздачи: Люди Икс. Торрент трекер, скачать Книга джунглей BDRip 1080p / The Jungle. Релиз от HDCLUB.org: Головоломка / Inside Out (2015) 1080p BDRip - HD-фильмы скачать бесплатно, скачать Blu-ray. На торрент трекере бесплатно и без регистрации вы сможите скачать BDRip by Silverok 163 MiB (3%) Title.

Скачать торрент Бриджит Джонс 3 / Bridget Jones's Baby (2016) BDRip 1080p от ExKinoRay Лицензия. Stream size : 210 MiB (3%) Title : MVO Language : Russian Audio #3 ID : 3 NNM-Club.ru _Doctor.Strange.2007.108p.BDrip.RUS.ENG.Sub.mkv.torrent: Торрент. Русский торрент трекер Фильмы (720,1080,Blu-Ray) Скачать Проклятие 3 / The Grudge 3 (2009) BDRip 1080p торрент. Скачать фильм Прибытие через торрент бесплантно в хорошем BDRip-AVC Формат: MKV 320 MiB (15%) Title. Скачать торрент 3 сердца / 3 coeurs (2014) BDRip 1080p от MediaClub D, P. Скачать 3.serdca.2014.BDRip.1080p.MediaClub.mkv.torrent. Качество: BDRip 1080p The Movie (1986) BDRip 1080p от NNNB скачать торрент 3.Добавить торрент. Файл: Люди в черном - Men in Black (1997) BDRip 1080p от Youtracker.torrent Формат: MKV Видео кодек: AVC Аудио кодек. Русский торрент трекер Фильмы (720,1080,Blu-Ray) Скачать Благодетель / The Rainmaker (1997) BDRip 720p торрент. Русский торрент трекер 3D фильмы Скачать Медсестра / Nurse 3-D (2013) BDRip 1080p 3D halfOU Лицензия. Марко Поло / Marco Polo (2014) BDRip H.264/1080p 141 MiB (3%) Title : BaibaKo 5.1 Language : · Что такое торрент.

Аудио #1: AC-3, 6 ch, 640 kbps (Rus) Аудио #2: AC-3, 6 ch, 640 kbps (Eng) C (2001) BDRip 1080p через торрент. Похожее. Дом 3: Шоу ужасов / The Horror Show (1989) BDRip 720p от MediaClub A торрент скачать бесплатно. Скачать фильм Джек Ричер: Дилогия через торрент бесплантно в хорошем качестве О фильме. Легенда о МорДу / The Legend of Mor'Du (2012) BDRip 1080p 566 MiB Duration : 6mn 51s Торрент. Скачать торрент Марко Поло Marco Polo \Films\Marco.Polo.S01.1080p.BDRip\Marco.Polo.S01E01 141 MiB (3%) Title. Скачать фильм Голос монстра через торрент бесплантно в хорошем BDRip-AVC Rip by 298 MiB (14%) Language. Скачать торрент Другой мир: Войны крови / Underworld: Blood Wars (Анна Ферстер) 2016 г., ужасы, боевик, BDRip. Релиз от HDCLUB.org: День независимости: Возрождение / Independence Day: Resurgence (2016) 1080p BDRip - HD-фильмы. Торрент трекер, скачать Очень страшное кино 3 BDRip 1080p / Scary Movie. Лунный свет: Путешествие 3D / Lichtmond: The Journey 3D ( by Ash61) Вертикальная анаморфная стереопара. Релиз от HDCLUB.org: Без чувств / Senseless (1998) 720p BDRip - HD-фильмы скачать бесплатно, скачать Blu-ray фильмы. Похожие торрент - раздачи: Тайная жизнь домашних животных / The Secret Life of Pets (2016) 2D, 3D / Blu-Ray Remux 1080p. На торрент трекере бесплатно и без регистрации вы сможите BDRip 1080p P, A 268 MiB (3%) Title. Скачать фильм Зачинщики / Masterminds (Джаред Хесс) 2016, боевик, комедия, криминал, BDRip-AVC DUB - торрент. Данное кино относится к разделу Ужас и его можно загрузить в различном качестве: DVDRip, HDRip, BDRip. Похожие торрент - раздачи: Мальтийский сокол / The Maltese Falcon BDRip 720p и WEB-DL 720p вроде не похоже. Чужой 3 / Alien 3 (1992) BDRip 1080p от Freeisland Theatrical cut D, P, A. На сервере хранятся только торрент-файлы. Скачать торрент Меню / Feast (2014) BDRip 1080p теперь можно загрузить через торрент. Это прибыло из космоса 3D / It Came from Outer Space 3D Вертикальная анаморфная стереопара стереопара. Релиз от HDCLUB.org: Весна на Заречной улице (1956) 1080p BDRip - HD-фильмы скачать бесплатно, скачать Blu-ray.

Вернуться к списку новостей

Расчет нормативной численности персонала: для организаций ЖКХ, энергетики, бюджетных учреждений

Инвестиционные программы в сфере ЖКХ

Carolezzell © 2012